The Nun 2018 720p TS x264 AAC [MW]

seeders: 1738
leechers: 401
updated:
Added by MFreaky in TV
Torrent verified.

The Nun 2018 720p TS x264 AAC [MW] (Size: 1.14 GiB )
The Nun 2018 720p TS x264 AAC [MW].mkv1.14 GiB

Description

 http://pichub.site/image/DT4GI 
http://pichub.site/image/DHqdg 
http://pichub.site/image/DTMI8 
http://pichub.site/image/DTf3X 
http://pichub.site/image/DTal5 
http://pichub.site/image/DTYAJ

IMDB 
http://www.imdb.com/title/tt5814060/

Video
Format                                   : AVC
Format/Info                              : Advanced Video Codec
Format profile                           : [email protected]
Format settings                          : CABAC / 4 Ref Frames
Format settings, CABAC                   : Yes
Format settings, RefFrames               : 4 frames
Codec ID                                 : V_MPEG4/ISO/AVC
Duration                                 : 1 h 34 min
Bit rate                                 : 1 500 kb/s
Width                                    : 1 280 pixels
Height                                   : 532 pixels
Display aspect ratio                     : 2.40:1
Frame rate mode                          : Constant
Frame rate                               : 29.970 (30000/1001) FPS
Color space                              : YUV
Chroma subsampling                       : 4:2:0
Bit depth                                : 8 bits
Scan type                                : Progressive
Bits/(Pixel*Frame)                       : 0.073
Stream size                              : 1 013 MiB (87%)
Writing library                          : x264 core 155 r2901 7d0ff22

Audio
Format                                   : AAC
Format/Info                              : Advanced Audio Codec
Format profile                           : LC
Codec ID                                 : A_AAC-2
Duration                                 : 1 h 34 min
Bit rate                                 : 224 kb/s
Channel(s)                               : 2 channels
Channel positions                        : Front: L R
Sampling rate                            : 48.0 kHz
Frame rate                               : 46.875 FPS (1024 SPF)
Compression mode                         : Lossy
Stream size                              : 151 MiB (13%)
Language                                 : English

Sharing Widget


Download torrent
1.14 GiB 
seeders:1738
leechers:401
The Nun 2018 720p TS x264 AAC [MW]



To share this torrent use the code below and insert it into comments, status messages, forum posts or your signature.

Torrent: The Nun 2018 720p TS x264 AAC [MW]

Trackers

tracker name
udp://tracker.coppersurfer.tk:6969/announce
udp://9.rarbg.me:2710/announce
udp://p4p.arenabg.ch:1337/announce
udp://tracker.leechers-paradise.org:6969/announce
udp://eddie4.nl:6969/announce
udp://thetracker.org:80/announce
udp://tracker.coppersurfer.tk:6969
udp://explodie.org:6969/announce
udp://tracker.aletorrenty.pl:2710/announce
udp://9.rarbg.to:2710/announce
udp://torrent.gresille.org:80/announce
udp://tracker.opentrackr.org:1337/announce
udp://tracker.piratepublic.com:1337/announce
udp://tracker.sktorrent.net:6969/announce
udp://zer0day.ch:1337/announce
??Torrent compatible trackers list

Locations

name
KickassTorrents
Torrent hash: A02513338BF5DF9FD1EE6BB1B5600755F499C3A4

All Comments

audio
0/10
video
0/10
please, leave only comments related to that torrent
Sign In

Report a bug Open chat